#TITLE:BRAVE PHOENIX;
#SUBTITLE:- Mahou Shoujo Lyrical Nanoha A's;
#ARTIST:Mizuki Nana;
#TITLETRANSLIT:;
#SUBTITLETRANSLIT:;
#ARTISTTRANSLIT:;
#CREDIT:Jubo;
#BANNER:BRAVE PHOENIX-bn.png;
#BACKGROUND:BRAVE PHOENIX-bg1.jpg;
#LYRICSPATH:BRAVE PHOENIX.lrc;
#CDTITLE:Jubo.png;
#MUSIC:BRAVE PHOENIX.mp3;
#OFFSET:0.682;
#SAMPLESTART:77.940;
#SAMPLELENGTH:29.725;
#SELECTABLE:YES;
#BPMS:0.000=135.000;
#STOPS:;
#BGCHANGES:4.000=BRAVE PHOENIX-Video.avi=1.000=1=0=0,
720.000=BRAVE PHOENIX-bg2.jpg=1.000=1=0=0,
99999=-nosongbg-=1.000=0=0=0 // don't automatically add -songbackground-
;
// cache tags:
#FIRSTBEAT:4.000;
#LASTBEAT:723.000;
#SONGFILENAME:songs/Otaku's Dream 3rd Anime Mix/[Jubo] BRAVE PHOENIX - Mahou Shoujo Lyrical Nanoha A's/BRAVE PHOENIX.sm;
#HASMUSIC:1;
#HASBANNER:1;
#MUSICLENGTH:324.628;
// end cache tags

//---------------dance-single - SM4 Steps----------------
#NOTES:
     dance-single:
     SM4 Steps:
     Edit:
     11:
     1.000,1.000,1.000,1.000,1.000,1823.000,377.000,397.000,0.000,0.000:

0000
0000
0000
0000
,
1001
0000
0000
0000
1100
0000
0000
0000
0202
0303
0000
0000
0000
0000
0000
0000
0101
0000
0000
0000
2200
3300
0000
0000
0000
0000
0000
0000
0011
0000
0000
0000
,
2020
3030
0000
0000
0000
0000
0000
0000
1010
0000
0000
0000
0022
0033
0000
0000
0000
0000
0000
0000
1100
0000
0000
0000
0101
0000
0000
0000
1100
0000
0000
0000
,
0220
0000
0000
0000
0000
0000
0000
0330
0000
0000
0110
0000
0011
0000
1001
0000
,
2020
3030
0000
0000
0000
0000
0000
0000
0101
0000
0000
0000
0220
0000
0000
0000
0000
0000
0330
0000
0000
0000
0000
0000
0000
0000
0000
0000
0000
0000
0000
0000
,
1001
0000
0000
0000
0011
0000
0000
0000
2020
3030
0000
0000
0000
0000
0000
0000
1010
0000
0000
0000
0022
0033
0000
0000
0000
0000
0000
0000
1100
0000
0000
0000
,
0202
0303
0000
0000
0000
0000
0000
0000
0101
0000
0000
0000
2200
3300
0000
0000
0000
0000
0000
0000
0011
0000
0000
0000
1010
0000
0000
0000
0011
0000
0000
0000
,
0220
0000
0000
0000
0000
0000
0000
0330
0000
0000
0110
0000
1100
0000
0101
0000
,
0220
0000
0000
0330
,
1001
0000
0000
0000
1010
0000
0000
0000
0220
0330
0110
0000
0000
0000
0000
0000
0110
0000
0110
0000
2020
3030
0000
0000
1001
0000
0000
0000
0101
0000
0000
0000
,
0220
0330
0000
0000
0000
0000
0000
0000
0110
0000
0000
0000
0202
0303
0000
0000
0000
0000
0000
0000
1010
0000
0000
0000
0011
0000
0000
0000
1010
0000
0000
0000
,
0220
0000
0000
0000
0330
0110
0011
1100
,
0220
0330
0000
0000
0000
0000
1100
0000
1100
0000
0000
0000
0022
0033
0000
0000
0000
0000
0000
0000
1100
0000
0000
0000
0022
0033
0000
0000
0000
0000
0000
0000
,
1001
0000
0000
0000
1010
0000
0000
0000
0202
0303
0101
0000
0000
0000
0000
0000
0101
0000
0101
0000
2020
3030
0000
0000
0000
0000
0000
0000
1100
0000
0000
0000
,
0102
0023
2030
3020
0032
0023
2030
3010
,
0110
1000
0001
0100
0010
0001
1000
0001
1000
0010
0100
1000
0010
0100
0001
0010
,
1100
0001
0100
0001
0010
0100
1000
0100
0010
0001
0010
0001
0100
0010
1000
0100
,
0011
1000
0010
1000
0100
0010
0001
0010
1100
0001
0100
1000
0001
0010
0100
1000
,
0011
0000
0000
0000
0000
0000
0110
0000
0000
0000
0000
0000
0110
0000
0000
0000
1100
0000
0000
0000
0004
4000
0000
0000
0000
0000
0000
0000
0000
0000
0003
3000
,
0210
0000
0001
0000
0010
0000
0010
0001
0010
0001
0010
0300
1100
0000
0010
0100
,
0020
1000
0100
1000
0100
0000
0100
1000
0100
1000
0100
1030
0011
0000
0110
0000
,
2100
0001
0100
0001
0100
0000
0001
0100
0001
0100
0001
3100
0110
0000
1000
0010
,
0100
0001
0100
0010
1000
0001
0100
0010
0100
0001
0010
0001
0100
0010
0001
0100
,
0002
0100
0010
0100
0010
0000
1000
0010
1000
0010
1000
0013
0101
0000
0100
0001
,
0200
0001
0010
0301
1100
0000
0010
0100
0020
1000
0100
1030
0011
0000
1000
0001
,
2000
0001
0100
0001
0100
0000
0001
0100
0001
0100
0001
3100
1010
0000
0010
0100
,
0011
0000
0100
1000
0101
0000
0100
0010
1100
0000
0010
0001
1010
0100
0010
0100
,
1001
0000
1000
0100
0010
0001
0100
0010
1000
0100
1000
0010
0100
0001
0010
0001
,
0010
0100
1000
0100
0010
0100
1000
0100
0010
0001
0010
0001
0010
0100
1000
0100
,
0011
0100
0001
0010
0100
1000
0100
1000
0100
0010
0100
1000
0010
1000
0100
0010
,
1000
0010
0001
0010
0100
0010
0001
0010
0001
0010
0100
1000
0100
0010
0001
0010
,
1100
0001
0010
0100
1000
0010
0100
0001
0010
0001
0100
0010
0100
0001
0010
0100
,
1000
0100
1000
0100
0010
0001
0010
0001
0100
0010
0001
0010
0100
0001
0100
0010
,
1100
0010
0100
0010
0001
0010
0001
0100
0010
0100
0010
0100
1000
0100
1000
0020
,
0001
0100
0001
0100
1000
0100
0001
0100
1000
0100
1030
0100
0011
1100
0011
1100
,
0001
1000
0001
1000
0011
0000
0010
1000
0010
0100
0010
0100
1010
0000
1000
0010
,
1000
0001
1000
0001
1100
0000
0100
0001
0100
0010
0100
0010
0101
0000
0010
1000
,
0010
0100
0010
0100
1010
0000
1000
0100
1000
0010
1000
0010
0101
0000
0001
0100
,
0001
0010
0001
0010
1100
0000
0100
0010
0100
0001
0100
0001
0110
0000
1001
0110
,
2002
0000
0000
3003
0110
0000
2200
0000
0000
3300
0110
0000
0011
0000
0202
0000
,
0000
0303
1001
0000
1010
0000
0220
0000
0000
0000
0000
0330
0110
0000
0000
0000
,
0002
0000
0023
0000
0230
0000
2300
3020
1000
0001
1000
0001
2000
3030
0000
0000
,
2000
0000
3200
0000
0320
0000
0032
0203
0001
1000
0001
1000
0002
0303
1000
0001
,
1000
0000
0100
0000
0010
0000
0001
0000
0010
1000
0100
0000
0010
0000
0100
0000
0001
0000
0010
0000
0100
0000
1000
0000
0100
0001
0010
0000
0100
0000
0010
0000
,
1000
0000
0100
0000
0010
0000
0001
0000
4000
0004
0000
0000
0000
0000
0000
0000
0000
0000
0000
0000
0000
0000
0000
0000
0000
0000
0000
0000
0000
0000
3000
0003
,
0110
0100
0010
0100
0010
0000
0100
0000
0001
0010
0100
1000
0011
0000
0010
0000
,
0100
0000
0001
0200
0010
0000
0000
0000
0010
0001
0010
0001
0010
0301
0010
0100
,
1000
0001
1000
0001
1100
0000
0100
1000
0100
0000
1000
0000
0100
0000
0010
0100
,
0002
0000
0010
1003
0020
0000
0100
1030
0200
0000
1000
0301
2000
0000
0100
3001
,
1100
0000
0001
0010
0101
0000
0010
0000
0100
0010
1000
0000
0110
0000
0010
0000
,
0101
0000
0110
0000
1100
0000
1010
0000
0220
0000
0000
0330
0110
0000
0100
0001
,
1100
0000
0100
0000
0010
0100
0002
0000
1000
0000
1003
0000
0110
0000
0220
0000
,
0000
0000
0330
0000
1100
0001
0010
0000
0101
1000
0010
0000
1100
0011
1100
0011
,
2200
3300
0000
0000
0010
0000
1000
0000
0101
0000
0000
0000
0010
0000
0000
0000
0100
0000
1000
0000
0001
0000
0000
0000
0110
0000
0000
0000
0100
0000
0000
0000
,
1000
0000
1001
2002
0000
0000
0000
0000
0000
0000
0000
0000
3003
0000
0001
0000
,
0010
0000
1000
0010
0000
0000
0010
0100
0010
0000
0100
0000
0010
0000
0001
0000
,
0022
0033
0000
0000
0010
0000
0000
0000
2020
3030
0000
0000
1000
0000
0000
0000
2002
3003
0000
0000
0001
0000
0000
0000
0202
0303
0000
0000
0100
0000
0010
0000
,
0100
0000
0010
0000
0100
0000
0010
0000
1000
0001
0200
0000
0010
0000
0300
0000
,
1000
0010
0001
0010
1000
0100
0001
0100
1000
0001
2000
0000
0001
0000
0001
3000
,
0202
0303
0000
0000
1001
0000
0101
0000
0011
0000
1100
0000
0110
0000
2002
3003
,
0000
0000
0000
0000
2200
3300
0000
0000
2200
3300
0000
0000
0010
0000
0000
0000
0100
0000
0000
0000
0001
0000
0000
0000
0010
0000
0000
0000
0100
0000
0000
0000
,
1000
0000
0010
0002
0000
0000
0100
0000
0100
0100
0100
1000
0000
0000
1000
0000
,
0010
0000
0010
0000
0010
0000
0100
0000
0000
0000
0000
0000
0010
0000
0000
0000
1003
0000
1000
0000
1000
0000
0001
0000
0200
0000
0000
0300
0000
0000
0000
0000
,
0110
0000
0010
0200
0000
0000
0000
0000
0001
0001
0001
0010
0000
0000
0010
0000
,
1000
0000
0001
0000
1000
0000
0001
0000
1000
0000
0001
0000
1000
0000
0301
0000
4000
0004
0000
0000
0000
0000
0000
0000
0000
0000
0000
0000
0000
0003
3000
0000
,
0120
0000
0000
0000
1000
0000
0000
0000
0001
0000
0000
0000
1000
0000
0001
0000
1000
0000
0001
0000
0030
0000
0001
0000
2020
3030
0000
0000
0101
0000
0000
0000
,
0210
0000
0000
0000
0001
0000
0000
0000
1000
0000
0000
0000
0001
0000
1000
0000
0001
0000
1000
0000
0300
0000
1000
0000
0202
0303
0000
0000
0110
0000
0000
0000
,
1002
0100
1000
0100
1000
0000
0100
1000
0100
1003
0100
1000
0101
0000
0001
0000
,
0012
0100
0010
0100
0010
0000
0100
0010
0100
0013
0100
0000
1000
0010
1000
0010
,
2200
3300
0000
0220
0330
0000
0001
0100
0022
0033
0000
2002
3003
0000
1000
0001
,
2020
3030
0000
2200
3300
0000
0100
1000
0202
0303
0000
0220
0330
0000
0010
0100
,
2002
0000
3003
0000
0000
0000
0000
0000
2001
0000
0000
0000
0000
3000
0100
0000
1200
0000
0000
0000
0000
0300
0010
0000
0120
0000
0000
0000
0000
0030
0001
0000
,
0012
0000
0000
0000
0000
0003
0010
0000
0021
0000
0000
0000
0000
0030
0100
0000
0210
0000
0000
0000
0000
0300
1000
0000
2100
0000
0010
0000
0001
3000
0010
0000
,
0001
0010
0100
1000
0100
1000
0100
1000
0001
1000
0001
2000
0000
3000
0010
0100
,
0010
0100
0010
0100
1000
0100
0010
0001
0010
0001
1000
0001
1000
0001
0100
0001
,
0110
0000
0001
0010
0100
1000
0010
0001
1000
0100
0001
0010
0100
1000
0010
0100
,
0001
0010
1000
0100
0010
0100
1000
0100
1000
0100
0010
0001
0010
0100
1000
0100
,
0001
0100
0011
0000
1000
0010
1100
0000
0001
1000
0110
0000
0100
0010
1001
0000
,
0001
0010
0100
1000
0100
1000
0100
0010
0001
0010
0100
1000
0010
0100
0001
0010
,
2200
3300
0001
0000
0020
0000
2030
0000
3200
0300
0000
0000
1000
0000
0001
0000
0100
0000
0001
0000
0020
0000
2030
0000
3200
0300
0000
0000
2200
3300
0000
0000
,
0022
0033
0000
0000
0200
0000
0302
0000
0023
0030
0000
0000
0010
0000
1000
0000
0010
0000
1000
0000
0200
0000
0302
0000
0023
0030
0000
0000
0001
0000
0000
0000
,
1000
0000
0000
0000
0200
0000
0302
0000
2003
3000
0000
0000
0100
0000
0010
0000
1000
0000
0010
0000
0200
0000
0302
0000
2003
3000
0000
0000
0202
0303
0000
0000
,
2020
3030
0000
0000
0001
0000
1000
0000
0001
0000
1000
0000
0001
0000
1000
0000
0040
0400
0000
0000
0000
0000
0000
0000
0000
0000
0000
0000
0000
0000
0030
0300
,
1001
0000
0001
0000
1100
0000
0001
0200
0001
1000
0000
1300
0011
0000
0001
1000
,
0001
0100
0010
0000
0110
0000
1000
0020
0100
0001
0000
0031
1100
0000
0001
0000
,
0100
0001
0010
0000
1100
0000
0001
1000
0010
0100
0001
0000
0110
0000
1000
0000
,
0001
0000
1000
0000
0100
0000
0000
0000
0012
0000
0000
0000
0000
0000
0003
0000
2200
3300
0000
0000
0000
0000
0220
0330
0000
0000
0000
0000
0011
0000
1100
0000
,
0022
0000
0033
0000
1001
0000
0220
0330
0100
0000
0100
0000
1001
0000
2020
3030
,
1000
0000
1000
0000
1001
0000
0120
0000
0100
0000
0100
0030
0110
0000
0001
1000
,
0010
0000
0000
0000
0100
0000
0000
0000
0011
0000
0000
0000
0001
0000
0200
0000
0020
0030
0000
0000
0000
0000
0020
0030
0000
0000
0300
0000
0001
0000
0000
0000
,
0010
0000
0000
0000
0100
0000
0000
0000
1000
0000
0000
0000
1000
0000
0020
0000
0200
0300
0000
0000
0000
0000
0200
0300
0000
0000
0030
0000
1000
0000
0000
0000
,
0001
0010
0100
1000
0100
0010
0001
0010
0100
1000
0100
0010
0001
0010
0100
1000
0100
0010
0001
0010
0100
1000
0100
0010
,
0001
0000
0000
0000
4000
0004
0000
0000
0000
0000
0000
0000
0000
0000
0000
0000
0000
0000
0000
0000
0000
0000
0000
0000
0000
0000
0000
0000
0000
0003
3000
0000
,
0110
0000
0001
1000
0101
0000
0001
0000
0010
0001
0100
0000
1010
0000
0001
0000
,
0010
0000
0100
0001
1010
0000
1000
0100
0010
0001
0010
0100
1000
0010
0100
0001
,
0010
0000
0010
0001
1100
0000
1000
0000
0100
0001
0010
0000
0101
0000
1000
0000
,
0210
0000
0001
0300
0102
0000
1000
0003
2001
0000
0010
3000
1020
0000
0100
0130
,
0011
0000
0010
0001
1100
0000
0010
0000
0100
0010
1000
0000
0101
0000
0010
0000
,
0101
0000
1100
0000
1010
0000
0011
0000
2100
0001
0000
3001
1100
0000
0100
0001
,
0010
0001
0010
0110
0100
1000
0100
0220
,
0000
0330
0000
0000
0110
0000
0010
0000
1010
0000
0001
0000
1100
0011
1100
0011
,
1100
0000
0001
1000
0110
0000
1000
0000
0010
1000
0100
0000
0011
0000
0100
0000
,
0001
0001
0010
0100
1000
1000
0100
0010
0001
0001
0010
0100
1000
1000
0100
0010
,
0001
0001
1000
0001
1010
0000
0010
0000
0100
0001
1000
0000
0011
0000
0100
0000
,
0102
0000
0100
0003
0210
0000
0010
0300
1020
0000
1000
0030
2001
0000
0001
3001
,
1100
0010
0001
1000
0100
0000
0100
1000
0001
0010
0002
0000
1000
0000
0003
0000
,
1000
0010
0001
0010
0100
0000
0100
0001
0010
0001
2000
0000
0010
0000
0010
3000
,
1002
0000
0000
0003
1100
0000
0110
0000
1010
0000
0101
0000
1001
0000
0021
0000
,
0000
0030
1100
0000
1100
0000
0100
0000
0010
0000
0001
0000
0010
0000
0100
0000
,
1001
0000
2000
3020
1000
0000
0100
0001
0100
0001
0000
1000
0002
0003
0100
0000
,
0001
1000
0001
2000
3000
0000
0100
0030
0100
0000
2000
3002
1003
0000
0010
0000
,
1100
0000
0002
0203
0010
0000
0010
0300
0110
0000
2000
3002
0003
0000
0000
0000
,
0110
0000
0000
0000
0002
0000
2003
0000
3000
0000
0000
0000
0001
0000
0000
0000
4000
0004
0000
0000
0000
0000
0000
0000
0000
0000
0000
0000
0000
0003
3000
0000
,
0220
0000
0000
0000
0000
0000
0000
0000
0000
0330
0000
0000
1001
0000
1010
0000
,
0202
0003
0000
0000
0020
0030
0000
0000
0020
0330
0000
0000
0220
0330
0000
0000
,
2020
3000
0000
0000
0200
0300
0000
0000
0200
0330
0000
0000
2002
3003
0000
0000
,
0202
0003
0000
0000
0020
0030
0000
0000
0020
0330
0000
0000
0000
0000
0000
0000
,
0001
1000
0001
0000
1000
0001
1000
0000
0001
1000
0001
0000
1100
0000
0101
0000
,
2020
3000
0000
0000
0002
0003
0000
0000
0002
0033
0000
0000
2002
3003
0000
0000
,
2200
3000
0000
0000
0020
0030
0000
0000
0020
0330
1001
0000
0220
0330
0000
0000
,
2002
3000
0000
0000
0200
0300
0000
0000
0200
0000
0000
0000
0000
0303
0000
0000
,
0110
0000
0010
0100
0010
0000
0100
0010
0000
0010
0200
0000
0000
0000
0300
0000
,
0001
0000
0010
0000
0100
0000
1000
0200
0000
0000
0000
0000
0300
0000
0011
0000
,
1100
0000
0000
0110
0000
0000
0011
0000
1100
0000
0000
0110
0000
0000
0011
0000
,
2002
0000
0000
3003
,
0001
1000
0001
0000
1000
0000
0001
1000
0001
1000
0001
0000
1000
0001
1000
0000
,
0001
0100
0001
0100
0001
0000
0010
0002
1000
0010
1000
0003
0010
0100
1010
0000
,
0202
0303
0000
0000
0000
0000
0010
0000
1000
0000
0100
0000
0001
0000
0000
0000
0010
0000
1000
0000
0001
0000
0100
0000
0001
0000
0010
0000
0100
0000
1000
0000
,
0100
0010
0001
0010
0100
1000
0010
0100
0010
0100
0010
0100
0010
0100
0010
0100
,
1001
0010
0100
0010
0100
0001
1000
0100
0010
0001
0020
0001
0100
1000
0130
0010
,
0001
0000
1000
0000
0010
0000
0001
1000
0010
0000
0100
0000
0010
0000
2000
0000
0001
0000
0010
0000
0100
0000
0010
0001
3100
0000
0010
0000
0001
0000
1000
0000
,
0010
0000
0100
0000
0001
0000
0100
0001
1000
0000
0010
0000
1000
0000
0001
0000
0100
0000
1000
0000
0100
0000
0010
1000
0001
0000
0100
0000
0001
0000
1000
0000
,
0010
0000
0001
0000
0010
0000
0100
0010
1000
0000
0100
0000
1000
0000
0001
0000
1000
0000
0001
0000
1000
0000
0001
0000
1000
0000
0001
0000
1000
0000
0001
0000
,
1000
0010
0100
0010
1000
0100
0001
1000
0010
0001
0100
2000
3020
0130
1000
0001
,
1000
0000
0100
0000
0001
0000
2000
0000
3002
0000
0103
0000
1000
0000
0020
0000
0001
0000
1000
0000
0100
0000
1030
0001
0100
0000
0010
0000
1100
0000
0000
0000
,
1100
0000
0000
0220
0330
0000
0011
0000
0011
0000
0000
0220
0330
0000
1100
0001
,
0100
0000
0001
0000
0100
0000
0001
0000
0100
0000
0001
0000
0100
0000
0001
0000
4000
0040
0000
0000
0000
0000
0000
0000
0000
0000
0000
0000
0000
0000
3000
0030
,
2000
0100
0001
0010
3002
0100
1000
0010
0203
1000
0001
0010
0302
1000
0010
0100
,
2003
0010
0100
0001
3200
0010
0001
1000
0302
1000
0100
0010
2003
0100
0010
0001
,
3100
0010
0100
0010
1001
0010
0100
1000
0001
0010
1000
0000
0011
0000
0100
0000
,
0001
0010
1000
0020
0100
0000
0001
0030
1000
0001
1000
0001
0100
0001
0100
0001
,
0010
0000
1000
0000
0010
0000
1000
0000
0101
0000
0000
0000
0011
0000
0000
0000
2020
3030
0000
0000
0220
0330
0000
0000
0202
0303
0000
0000
2200
3300
0000
0000
,
0022
0030
0000
0000
0000
0000
2000
0000
3000
0000
0000
0000
0200
0000
0300
0000
2000
0000
3000
0000
0000
0000
0200
0000
0300
0000
0000
0000
1003
0000
0001
0000
,
1000
0010
0001
1000
0110
0000
0001
0000
1000
0001
0010
0000
0101
0000
1100
0000
,
0101
0000
1010
0000
0110
0000
0101
0000
1200
0000
1000
1300
0011
0000
0010
0100
,
0010
0100
1000
0001
1000
0010
0200
0001
1000
0310
0001
0010
0100
1000
0012
0000
,
0000
0000
0003
0000
2100
0000
0000
3000
0012
0000
0000
0003
1100
0011
1100
0011
,
1100
0000
0001
1000
0011
0000
0010
0000
0100
0001
1000
0000
0110
0000
0010
0000
,
0100
1000
1000
0100
0010
0001
0001
0010
0100
1000
1000
0100
0010
0001
0001
0010
,
0100
1000
0100
2000
0001
3000
0001
0000
0010
1000
0100
0001
1100
0000
0001
0000
,
0220
0000
0330
0000
0000
0000
0022
0000
0033
0000
0000
0000
2200
0000
3300
0000
0002
0000
0000
0003
0020
0000
0000
0030
2000
0000
0000
3000
0011
0000
1100
0000
,
0011
0000
0100
0010
0100
0001
0010
1000
0000
1000
0200
0000
0010
0000
0310
0000
,
0010
1000
0010
0000
0100
0000
1000
0001
0000
0001
0020
0000
0100
0000
0100
0030
,
0210
0000
0000
0300
2000
0000
3200
0000
0320
0000
0032
0000
0003
0000
0101
0000
,
0000
0000
0000
0000
0220
0330
0000
0000
0220
0330
0000
0000
0100
0000
0000
0000
1000
0000
0000
0000
0100
0000
0000
0000
0010
0000
0000
0000
0001
0000
0000
0000
,
0011
0000
0000
0000
0002
0000
2000
0000
3000
0000
0000
0000
0100
0000
0000
0000
0100
0000
0000
0000
0020
0030
2000
0000
3000
0000
0000
0000
0100
0000
0000
0000
,
0200
0000
0300
0000
0020
0030
2000
0000
3000
0000
0000
0000
0010
0000
0000
0000
0010
0000
0003
0000
2000
0000
3002
0000
0103
0000
0000
0000
0010
0000
0000
0000
,
0010
0000
0000
0000
2000
0000
0020
0000
0030
0000
0000
0000
0001
0000
0000
0000
0001
0000
0000
0000
0200
0300
0002
0000
0003
0000
0000
0000
0010
0000
0000
0000
,
0010
0000
0000
0000
0002
0003
0020
0000
3030
0000
0000
0000
0100
0000
0000
0000
1000
0000
0000
0000
0100
0000
0000
0000
0010
0000
0000
0000
0001
0000
0000
0000
,
1001
0000
0000
0000
0020
0000
0230
0000
0000
0000
0000
0000
0001
0000
0000
0000
0001
0000
0000
0000
2000
3000
0020
0000
0030
0000
0000
0000
0001
0000
0000
0000
,
0001
0000
0000
0000
0020
0030
0002
0000
0003
0000
0000
0000
0001
0000
1000
0000
0001
0000
1000
0000
0301
0000
1000
0000
0001
0000
1000
0000
0001
0000
1000
0000
,
0110
0001
0010
1100
0010
1000
0101
0010
1100
0010
1000
0011
0100
0001
0110
1000
,
0014
4000
0000
0000
0000
0000
0003
3000
0040
0400
0000
0000
0000
0000
0300
0030
4000
0004
0000
0000
0000
0000
3000
0003
0400
0040
0000
0000
0000
0000
0300
0030
,
2002
0000
0000
0000
0000
0000
0000
0000
3003
0000
2002
3003
0110
0000
0001
0000
,
1100
0000
0000
0000
1000
0000
0000
0000
1100
0000
0000
0000
0011
0000
0000
0000
0001
0000
0000
0000
0012
0000
0000
0003
0200
0000
0000
0300
0020
0000
0000
0030
,
2000
0100
0010
0100
0010
0000
0010
0000
3020
0001
1000
0001
0100
0000
0100
0000
,
0230
0010
1000
0010
0001
0000
0001
0000
0302
1000
0010
1000
0100
0000
0100
0000
,
0103
0011
1100
0100
1100
0101
0001
0101
,
1100
0100
0110
1100
1000
2100
3020
0230
,
0302
0010
0100
0010
0100
0000
0100
0000
0203
1000
0001
1000
0010
0000
0010
0000
,
0320
0100
0001
0100
1000
0000
1000
0000
2030
0001
0100
0001
0100
0010
0010
0010
,
3020
0000
0200
0300
2000
3000
0000
0000
2000
3000
0200
0300
0000
0000
0200
0300
,
2000
3000
0000
0000
2000
3000
0230
0300
0000
0000
0101
0000
1010
0000
0011
0000
,
1200
0000
0010
0001
0010
0000
0001
0010
0001
0010
0001
0010
0001
0000
1000
0010
,
1000
0010
1000
0010
1000
0000
0010
1000
0310
1000
0010
1000
0012
0000
2003
0001
,
3200
0000
0020
0030
0002
0003
0000
0000
0002
0003
0020
0030
0000
0000
0020
0030
,
0002
0003
0000
0000
0002
0003
0320
0030
0000
0000
0002
0000
2003
0000
3020
0030
,
1001
0001
0010
0100
0010
0100
0010
0001
0110
1000
0100
0010
0100
0010
0100
1000
,
0011
0100
1000
0010
0100
0001
0010
0001
2200
3300
0000
2002
3003
0000
0022
0000
,
0000
0033
0000
1100
0000
0000
2200
0000
0000
0000
0000
0000
0000
0000
0000
0000
,
0000
0000
0000
3300
;

//---------------dance-single - Steps by Jubo----------------
#NOTES:
     dance-single:
     Steps by Jubo:
     Medium:
     6:
     0.435,0.501,0.203,0.730,0.037,685.000,66.000,237.000,0.000,0.000:
0000
0000
0000
0000
,
1000
0000
0010
0000
,
0100
0000
0100
0001
,
2000
0000
0000
0000
0000
0000
0000
3000
0000
0000
0000
0000
0001
0000
0000
0000
,
0010
0100
1000
0000
,
0001
0000
0100
0000
,
0010
0000
0010
1000
,
0002
0000
0000
0000
0000
0000
0000
0003
0000
0000
0000
0000
0100
0000
0010
0000
,
0200
0000
0000
0300
,
0001
0010
0100
1000
,
0100
0000
0010
0000
0001
0000
0001
1000
,
0002
0000
0003
1000
,
0010
0001
0010
1000
,
0001
0010
0100
1000
,
0100
0000
0010
0000
0001
0100
0002
0000
,
2003
0000
0000
0000
0001
0000
0000
3001
,
0002
0000
0000
0000
1000
0000
0000
1003
,
2000
0000
0000
0000
3020
0000
0000
0030
,
2000
3020
0230
0302
,
2003
0000
0001
0000
0000
0000
3010
0100
,
0020
0000
1000
0000
0000
0030
0100
0001
,
2000
0000
0000
0000
0001
0000
0000
0000
0000
0000
0000
0000
0001
3000
0000
0000
,
0002
0203
0320
2030
,
3002
0000
0000
0000
1000
0000
0000
0000
0000
0000
0000
0000
0100
0003
0010
0000
,
0200
0000
0001
0300
0002
0000
0000
0003
,
2002
0000
0000
0000
0000
0000
0000
0000
0000
0000
0000
0000
0000
3003
0000
0000
,
2000
3002
0203
0320
,
1030
0000
0001
0000
0100
0010
0100
0010
,
0200
0000
0010
0000
0300
0000
0001
1000
,
0002
0000
1000
0003
0100
0000
0010
0000
,
0002
1000
0000
1003
,
1000
0000
0001
0000
0100
0010
0100
0010
,
0200
0000
0010
0000
0000
0300
0010
1000
,
0002
0000
1000
0003
1000
0000
0001
0000
,
0220
0000
0000
0000
0000
0000
0000
0000
0000
0000
0000
0000
0000
0330
0000
0000
,
2002
0000
0000
3003
0022
0000
0000
0033
,
2200
0000
0000
3300
2020
0000
0000
3030
,
0202
0000
0000
0303
0022
0000
0000
0033
,
2200
0000
0000
3300
2002
0000
0000
3003
,
2000
0000
3001
0001
0000
1000
0010
0200
,
0000
0301
0100
0020
0000
0000
0030
0000
,
1000
0000
0000
0000
0010
0000
0100
0000
0020
0000
0000
0000
0000
0030
0000
0000
,
0100
0000
0001
1000
0002
0000
0000
0000
,
2003
3020
0230
0302
,
0023
0230
2300
3002
,
1003
0000
0100
0000
0010
0000
0001
1000
,
0001
0000
1000
0000
0002
0000
0000
0000
1000
0000
0000
0000
1000
0003
0000
0000
,
1010
0000
0011
0000
0010
0001
0010
0001
,
2000
0000
0000
3000
0020
0000
0000
0030
0200
0000
0000
0300
0002
0000
0000
0003
,
1000
0000
0100
0000
0010
0000
0001
0010
,
0100
1000
0100
0010
0002
0000
0003
0000
,
2000
0000
3000
0002
0000
0003
0100
0020
,
0000
0030
2000
0000
3002
0000
0203
0000
,
0310
0000
0010
0000
1000
0001
1000
0001
,
1000
0000
0002
0000
0000
0000
0000
0000
0000
0000
0000
0003
0000
0000
0000
0000
,
1000
0000
0001
0000
1000
0010
1000
0010
,
2000
3020
0230
0302
,
1003
0001
1000
0001
1000
0002
0000
0003
,
0100
0010
0100
0010
0100
0020
0000
0000
,
0130
0000
1000
0001
1000
0001
1000
0002
,
0000
1003
1000
0000
0001
0000
0100
0000
,
0010
0000
0000
2000
0000
0000
0000
0000
0000
0000
0000
0000
0000
0000
0001
0000
,
0001
0000
3000
0001
,
1000
0000
0000
0002
0000
0000
0000
0000
1000
0000
0000
0000
0000
0000
0000
0000
,
1000
0000
1000
0000
1000
0000
1000
0003
,
2002
0000
0000
0000
0000
3003
0010
0100
,
0020
0000
0000
0000
0000
0000
0000
0000
0000
0030
0000
0000
0110
0000
0000
0000
,
2002
0000
0000
0000
0000
3003
0000
0000
,
0220
0000
0000
0000
0000
0000
0000
0000
0000
0330
0000
0000
0001
0000
1000
0000
,
0001
0000
0000
0100
0000
0000
0010
0000
0010
0000
0000
1000
0000
0000
0001
0000
,
0001
0000
0000
0010
0000
0000
0100
0000
0100
0000
0000
1000
0000
0000
0001
0000
,
0001
2000
3200
0320
,
0032
0000
0000
0000
0023
0000
0000
0000
0230
0000
0000
0000
2300
0000
0000
3000
,
0002
0000
0000
0000
,
2000
0000
0000
0000
0000
0000
0000
3000
,
1003
0000
0001
0000
0100
0010
0100
0010
,
0200
0000
0000
0000
0300
0000
0010
1000
,
0002
0000
0000
0000
0000
0003
0000
0000
1000
0000
0000
0000
1000
0000
0001
0000
,
2000
0000
0000
3000
,
0220
0000
0000
0330
0022
0000
0000
0033
,
2200
0000
0000
3300
2002
0000
0000
3003
,
0202
0000
0000
0000
0000
0303
0000
0000
2020
0000
0000
0000
0000
0000
3030
0000
,
1000
0000
0001
1000
0001
1000
0001
1000
,
0001
0001
0200
0310
,
1000
0001
0200
0310
,
0100
0010
0100
0000
0001
0000
1000
0001
,
1000
0001
0200
0000
0310
0000
1000
0000
,
0001
0000
1000
0001
0000
0001
1000
0010
,
0000
0010
1000
0200
0000
0000
0300
0000
,
1000
0001
0200
0300
,
0010
1000
0002
0003
,
0100
0010
0100
0010
0100
0010
0100
0010
,
0200
0302
2003
3020
,
1030
0000
0001
0000
0100
0010
0100
0000
,
0001
0100
0001
0000
1000
0001
1000
0001
,
1000
0000
1000
0000
0010
0100
0010
0100
,
0020
2030
3002
0203
,
0301
0000
1000
0000
0010
0100
0010
0000
,
1000
0001
0200
0300
,
0022
0000
0000
0033
0000
0000
0220
0000
0000
0000
0330
0000
0000
0000
2200
0000
,
0000
3300
0000
0000
2000
0000
0000
0000
3020
0000
0000
0000
0230
0000
0000
0000
,
0301
0001
0010
0100
,
1000
0001
1000
0001
1000
0001
1000
0001
,
1000
1000
0100
0010
,
0002
0203
0320
2030
,
3001
0101
0100
0210
,
0310
1010
1000
2001
,
3002
0000
1003
0010
1000
0010
1000
0020
,
0000
0100
0230
0000
0310
0000
1000
0000
,
0001
0000
0000
2000
0000
0000
0000
0000
0000
0000
0000
0000
0000
0000
0010
0000
,
0020
0000
0000
0000
0000
0000
0000
0000
0000
3030
0000
0000
1000
0000
0000
0000
,
0001
0000
0000
0002
0000
0000
0000
0000
0000
0000
0000
0000
0000
0000
1000
0000
,
1000
1000
1000
1000
,
2003
0000
0000
3001
,
0022
0000
0000
0000
0000
0000
0000
0000
0000
0033
0000
0000
0110
0000
0000
0000
,
2200
0000
3300
0110
,
0022
0000
0000
0000
0000
0000
0000
0000
0000
0033
0000
0000
0000
0000
0000
0000
,
0202
0000
0303
1001
,
2020
0000
3030
1001
,
0202
0000
0303
1001
,
2020
0000
0000
3030
,
0110
0000
0100
0010
0100
0020
0000
0030
,
1000
0010
1000
0010
2000
0000
3000
0001
,
1000
0000
0000
0001
0000
0000
0100
0000
0010
0000
0000
1000
0000
0000
0001
0000
,
2002
0000
0000
3003
,
0110
0000
0010
0100
0010
0200
0000
0300
,
0001
0100
0001
0100
0002
0000
0003
1000
,
0001
0000
0000
1000
0000
0000
0010
0000
0100
0000
0000
0001
0000
0000
1000
0000
,
2002
0000
0000
0000
0000
0000
0000
3003
,
1001
0000
1000
0001
1000
0002
0000
0003
,
1000
0100
1000
0100
2000
0000
3000
0001
,
0100
0000
0000
0010
0000
0000
1000
0000
0010
0000
0000
0100
0000
0000
0001
0000
,
0202
0000
0000
0000
0000
0000
0000
0000
0000
0000
0000
0000
0000
0303
0000
0000
,
1001
0000
0001
1000
0001
2000
0000
3000
,
0001
0010
0001
0010
0002
0000
0003
1000
,
0010
0000
0000
0100
0000
0000
0001
0000
0100
0000
0000
0010
0000
0000
1000
0000
,
2020
0000
0000
0000
0000
0000
0000
0000
0000
0000
0000
0000
0000
3030
0000
0000
,
2000
3020
0230
0302
,
0023
0230
2300
3002
,
1003
1001
0001
0101
,
0100
0000
0220
0330
0010
1000
0010
1000
,
0010
0000
1010
0000
0100
0010
0100
0010
,
0200
0000
0001
0000
0001
0000
0001
0300
,
0101
0000
1001
0000
1000
0000
0001
0010
,
0100
1000
0100
0010
0002
0000
0003
0000
,
2200
0000
0000
3300
0000
0000
0220
0000
0000
0000
0000
0330
0000
0000
0022
0000
,
0000
0033
0000
0000
0002
0000
0000
0000
2003
0000
0000
0000
3020
0000
0000
0000
,
1030
0000
1001
0000
1000
0100
0010
0001
,
0010
0100
2000
0000
0010
0000
0001
0000
,
3001
1001
0001
0010
,
0100
1000
0100
0010
,
0011
0010
0100
1100
,
0100
0010
0011
0010
,
0110
0000
0100
0010
0100
0020
0000
0230
,
0000
0010
0310
0000
0001
1000
0001
1000
,
0001
2000
0000
0000
0000
0000
0000
0010
,
0020
0000
0000
0000
0000
0000
0000
0000
0000
3030
0000
0000
0100
0000
0001
0000
,
0100
0002
0000
0000
0000
0000
0000
0100
,
0100
0000
0000
0100
0003
0000
0100
0000
0010
0000
0100
0000
0010
0000
0100
0000
,
0010
0100
0002
0000
0000
0000
0000
0000
,
1000
0000
0000
1000
0000
0000
2000
0000
0000
0000
3003
0000
0000
0000
0001
0000
,
0010
0000
0000
0100
0000
0000
1000
0000
0100
0000
0000
0010
0000
0000
0001
0000
,
2000
3200
0320
0000
,
0032
0000
0000
0000
0000
0000
0000
0003
0000
0000
2000
3000
0000
0000
1000
0000
,
0001
0000
0001
1000
0000
1000
0010
0100
,
0002
0000
0203
0000
,
0320
0000
2030
0000
,
3001
0000
1000
0000
1000
0010
0000
0010
,
1000
0000
1000
0001
0000
0001
0010
0100
,
2000
0000
3020
0000
,
0230
0000
0302
0000
,
2003
0001
0000
0001
,
0000
0000
0001
0000
0000
3000
0002
0000
,
2003
0001
0000
0001
,
0000
0001
3000
2000
,
3002
1000
0000
1000
,
0000
0000
1000
0000
0000
0003
2000
0000
,
3002
0000
0000
0000
0000
0000
1003
0000
1000
0000
0000
0010
0000
0000
0100
0000
,
0100
0000
0000
0001
0000
0000
1000
0000
1000
0000
0000
0010
0000
0000
0020
0000
,
0030
0000
0000
0110
0000
0000
2002
0000
0000
0000
0000
0000
0000
0000
0000
0000
,
0000
0000
0000
3003
;

//---------------dance-single - ----------------
#NOTES:
     dance-single:
     :
     Hard:
     9:
     0.546,0.724,0.179,0.437,0.296,1041.000,58.000,142.000,0.000,0.000:
0000
0000
0000
0000
,
1000
0001
0010
0000
0010
0001
0000
1000
,
0100
0000
0100
1000
0000
0001
1000
0001
,
0200
0000
0000
0000
0000
0000
0000
0300
0000
0000
0010
0000
1000
0000
0001
0000
,
0100
0000
0010
0100
0000
0000
0000
0000
,
0001
1000
0100
0000
0100
1000
0000
0001
,
0010
0000
0010
0001
0000
1000
0001
1000
,
0020
0000
0000
0000
0000
0000
0000
0030
0000
0000
0100
0000
0001
0000
1000
0000
,
0020
0000
0000
0030
,
1000
0001
0010
0000
0010
0001
0000
1000
,
0100
0000
0100
1000
0000
0001
1000
0001
,
0200
0000
0000
0000
0300
0010
1000
0001
,
0100
0000
0010
0100
0000
0001
1000
0000
,
0000
0000
0001
0000
1000
0010
0000
0010
,
1000
0000
0001
0100
0000
0100
0001
0000
,
1000
0000
0000
0001
0000
0000
0100
0000
0100
0000
0000
0010
0000
0000
1000
0000
,
0001
0000
0000
0001
0000
0000
0100
0000
0010
0000
0000
0010
0000
0000
1000
0000
,
1000
0000
0000
0001
0000
0000
0010
0000
0100
0000
0000
0100
0000
0000
1000
0000
,
1000
0000
0000
0001
0000
0000
0010
0000
0100
0000
0000
1000
0001
1000
0001
1000
,
0002
0000
0000
0000
0100
0000
0000
0000
0000
0000
0000
0000
0103
0000
0100
0001
,
0200
0000
0001
0000
0000
0300
0010
1000
,
0002
0000
0000
0000
1000
0000
0000
0000
0000
0000
0000
0000
1000
0003
0000
0000
,
1001
1010
0110
0101
,
2000
0000
0000
0000
0010
0000
0000
0000
0000
0000
0000
0000
0010
3000
0010
1000
,
0020
0000
0000
0000
1000
0030
0000
0000
2000
0000
0000
0000
0000
0000
3000
0001
,
2000
0000
0000
0000
0000
0000
0000
0000
0000
0000
0000
0000
0000
3000
0000
0000
,
0110
1100
1001
0011
,
0001
0000
0100
0000
0010
0000
1000
0000
0100
0000
0010
0000
0001
0000
0010
0002
,
0000
0000
0000
0000
0003
0000
0010
0100
,
2000
0000
0000
0000
0000
0000
3000
0000
0010
0000
0100
0000
0010
0000
1000
0020
,
0000
0000
0000
0030
,
1000
0000
0100
0000
0010
0000
0001
0000
0010
0000
0100
0000
0010
0000
0100
2000
,
0000
0000
0000
0000
0000
3000
0100
0010
,
0002
0000
0000
0000
0000
0000
0003
0000
0100
0000
0010
0000
0100
0000
0001
2000
,
0000
0000
0000
0000
0000
0000
0000
0000
0000
0000
0000
0000
0000
3000
0000
0000
,
1000
0001
2000
0000
0000
0000
3000
0000
0010
0100
0020
0000
0000
0000
0030
0000
,
0100
0001
0200
0000
0000
0000
0300
0000
0001
0010
0002
0000
0000
0000
0003
0000
,
1000
0010
2000
0000
0000
0000
3000
0000
0010
0100
0020
0000
0000
0000
0030
0000
,
0100
0001
0200
0000
0000
0000
0300
0000
0010
1000
0020
0000
0000
0000
0030
0000
,
2000
0000
0000
3000
0010
0000
0100
0000
0000
0000
0100
0000
0010
0000
2000
0000
,
0000
3000
0010
0000
0100
0000
0002
0000
0000
0000
0000
0000
0003
0000
0000
0000
,
1000
0000
0100
0000
0010
0000
0001
2000
0000
0000
0000
0000
0000
3000
0000
0000
,
0100
0000
0010
0000
0010
0000
0100
2000
0000
0000
0000
0000
0000
0000
0000
0000
,
3001
0010
0100
1000
,
0100
0010
0001
0010
,
0100
0010
0100
0000
0000
0000
0010
0000
0100
0000
0010
0000
0001
0000
0100
0000
,
0010
0000
1000
0200
0000
0000
0000
0000
0000
0000
0000
0000
0000
0300
0010
0000
,
0001
1000
0001
1000
0000
0000
0000
0000
0010
0000
0001
0000
0010
0000
0100
0000
,
2000
0000
0000
3000
0200
0000
0000
0300
0020
0000
0000
0030
0002
0000
0000
0003
,
1000
0100
1000
0100
0010
0001
0010
0100
,
1000
0100
0010
0001
0020
0000
0030
0001
,
0100
0001
0100
0002
0000
1003
0100
0020
,
0000
0030
0110
0000
1010
0000
0011
0000
,
0001
0000
0010
0100
0000
0000
0100
0000
0010
0000
0001
0000
0010
0000
0100
0000
,
1000
0000
0002
0000
0000
0000
0000
0000
0000
0000
0000
0003
0000
0000
1000
0000
,
0100
0000
0000
0010
0000
0000
0100
0010
0100
0000
0010
0000
0100
0000
1000
0000
,
1100
0101
1001
1010
,
0010
0100
0010
0100
0001
2000
0000
3000
,
0001
1000
0001
1000
0010
0200
0000
0000
,
0300
0000
1000
0010
0100
0001
0000
1001
,
0000
0001
0001
0100
0010
1000
0100
0010
,
0001
0000
0000
2000
0000
0000
0000
0000
0000
0000
0000
0000
0000
0000
0001
0000
,
0001
0000
3000
0100
,
0010
0000
0100
0020
0000
0000
0000
0000
0001
0000
0000
0000
0000
0000
0000
0000
,
0001
0000
0001
0000
0001
0001
0001
0031
,
2002
0000
0000
0000
0000
3003
0010
0100
,
0020
0000
0000
0000
0000
0000
0000
0000
0000
0030
0000
0000
0110
0000
0000
0000
,
2002
0000
0000
0000
0000
3003
0000
1000
,
2000
0000
0000
0000
0000
0000
0000
0000
0000
3000
0000
0000
0001
0100
0001
0000
,
0100
0000
0000
0010
0000
0000
1000
0010
1000
0000
0000
1000
0000
0000
0001
1000
,
0001
0000
0000
0001
0000
0000
0010
0001
0010
0000
0000
0010
0000
0000
0100
0010
,
0100
0002
0023
0230
,
2300
0000
0000
0000
3200
0000
0000
0000
0320
0000
0000
0000
0032
0000
0000
0003
,
1000
0100
0010
0001
0010
0001
0010
0001
1000
0001
1000
0001
0000
0000
0100
0010
,
0100
0010
0100
0000
0001
0010
0100
1000
0100
1000
0100
1000
0100
1000
0010
1000
,
0010
0000
1000
0000
0010
0000
0100
0000
0001
0000
1000
0000
0010
0000
0100
0020
,
0000
0000
0000
0000
0030
0000
0100
0001
,
2000
0000
0000
0000
0000
3000
0000
0000
0001
0000
0100
0000
0010
0000
1000
0002
,
0000
0000
0000
0003
,
0010
0000
0100
0000
0010
0000
0001
0000
0010
0000
0100
0000
0010
0000
0001
0020
,
0000
0000
0000
0000
0000
0000
0000
0000
0000
0030
0000
0000
1000
0000
0001
0000
,
0020
0000
0000
0000
0000
0030
0000
0000
0100
0000
1000
0000
0100
0000
0010
0000
,
0100
0000
0000
1000
0000
0000
0001
0000
0010
0000
0100
0000
1000
0100
1000
0000
,
0010
0000
1000
0000
0001
0000
1000
0200
0000
0000
0000
0000
0300
0000
1000
0001
,
1000
0000
0100
0000
0010
0000
0001
0200
0000
0000
0000
0000
0300
0000
0000
0000
,
0010
0000
0100
0000
0001
0000
1000
0001
0000
0000
1000
0000
0010
0000
0001
0000
,
0000
0000
0010
0000
2000
0000
0000
0000
3001
0000
0000
0010
0000
0000
0100
0000
,
0100
0000
1000
0010
0000
0010
1000
0001
,
0000
0001
1000
0200
0000
0000
0300
1000
,
0100
0000
0010
0000
0001
0000
1000
0020
0000
0000
0000
0000
0000
0030
1000
0000
,
0100
0000
0010
0000
0001
0000
0001
2000
0000
0000
0000
0010
0000
0000
3010
0000
,
0010
1000
0010
1000
0010
1000
0010
1000
0001
1000
0001
1000
0001
1000
0100
1000
,
0100
1100
0101
0011
,
1001
0000
1000
0001
0000
0000
1000
0000
0100
0000
0010
0000
0100
0000
1000
0000
,
0100
0000
0010
0100
0000
0000
0010
0000
0001
0000
0010
0000
0001
0000
1000
0000
,
0010
0000
0010
1000
0000
0000
0001
0000
0010
0000
0100
0000
1000
0000
0001
0000
,
2000
3002
0203
0320
,
0130
0000
0100
0010
0000
0000
0100
0000
0010
0000
1000
0000
0010
0000
0100
0000
,
0010
0001
0010
0100
0020
0000
0030
0010
,
0100
1000
0100
0010
0100
0001
0100
0020
,
0000
0030
0000
0000
0110
0000
0000
0000
0101
0000
0000
0000
1001
0000
0000
0000
,
0010
0000
1000
0001
0000
0000
0001
0000
0100
0000
0010
0000
1000
0000
0010
0000
,
0100
0010
0100
0010
0100
0010
0100
0010
,
1000
0001
1000
0001
1000
0000
0010
0000
0100
0000
0001
0000
1000
0000
0010
0000
,
1010
0110
0101
1001
,
1000
0010
1000
0010
0100
0001
0100
0001
1000
0010
2000
0000
0000
0000
3000
0000
,
0001
0100
0001
0100
0010
1000
0010
1000
0001
0100
0002
0000
0000
0000
0000
0000
,
2003
0000
3010
0100
0001
1000
0000
0200
,
0000
0010
0310
0010
0100
1000
0100
0010
,
0100
0000
0010
0200
0000
0000
0000
0000
0000
0000
0000
0000
0000
0000
0010
0000
,
0010
0000
0000
0000
0000
0000
0000
0300
0000
0000
0000
0000
1000
0000
0000
0000
,
0001
0000
1000
0020
0000
0000
0000
0000
0130
0000
0000
0000
0000
0000
0000
0000
,
0010
0000
0000
1000
0000
0000
0001
0000
0100
0010
0100
0010
0100
0010
0100
0010
,
0200
0000
0000
0300
0000
0000
0010
1000
,
1020
0000
0000
0000
0100
0000
0000
0000
0100
0030
0000
0000
0110
0000
0000
0000
,
0201
0001
0301
1001
,
1020
0000
0000
0000
1000
0000
0000
0000
2000
3030
0000
0000
0000
0000
0000
0000
,
2100
0000
0100
0000
3100
0000
0001
0100
,
0201
0001
0301
1001
,
0021
0000
0001
0000
0031
1000
0001
0000
,
0210
0010
0010
0300
,
0110
0000
0100
0010
0100
0000
0010
0100
0000
0100
0020
0000
0000
0000
0030
0000
,
1000
0000
0100
0000
0010
0000
0001
0020
0000
0000
0000
0000
0030
0000
1000
0000
,
0001
0000
0000
0100
0000
0000
1000
0000
0001
0000
0000
0100
0000
0000
1000
0000
,
2002
0000
0000
3003
,
1000
0001
1000
0000
0001
0000
1000
0001
0000
0001
1000
0000
0000
0000
0000
0000
,
1000
0010
1000
0010
1000
0000
0100
2000
0000
0000
0000
3000
0000
0000
0001
0000
,
0010
0000
0000
0100
0000
0000
1000
0000
0100
0000
0000
0010
0000
0000
0001
0000
,
0100
0000
0010
0100
0010
0000
0100
0010
0100
0010
0100
0010
0100
0010
0100
0000
,
0001
0000
0100
0010
0100
0000
0010
1000
0000
1000
0200
0000
0000
0000
0300
0000
,
1000
0000
0010
0100
0010
0000
0100
0002
0000
0000
0000
0000
0003
0000
1000
0000
,
0100
0000
0000
0010
0000
0000
0001
0000
0010
0000
0000
0100
0000
0000
1000
0000
,
0100
0000
0000
0010
0000
0000
0001
1000
0001
1000
0001
1000
0001
1000
0001
0000
,
1000
0000
0010
0100
0010
0000
1000
0001
0000
2000
0000
0000
0000
0000
3000
0000
,
0001
0000
1000
0001
1000
0000
0001
0200
0000
0000
0000
0000
0300
0000
0001
0000
,
0100
0000
0000
0010
0000
0000
1000
0000
0010
0000
0000
0100
0000
0000
0001
0000
,
0010
0000
0100
0000
1000
0000
0100
0000
0010
0000
0001
0010
0001
0010
0001
0010
,
0002
0203
0320
2030
,
3200
0320
0032
1003
,
0010
0100
0010
0100
0000
0000
0010
0000
1000
0000
0001
0000
0100
0000
0010
0000
,
1000
0000
0001
0200
0000
0000
0000
0300
0001
1000
0001
1000
0001
1000
0001
1000
,
0001
0000
0100
0010
0000
0000
0010
0000
1000
0000
0001
0000
0100
0000
0010
0000
,
2000
0000
0000
0001
0000
0000
0010
0000
0001
0000
0000
0010
0000
0000
3001
1000
,
0001
0000
1000
0001
0000
0000
1000
0000
0001
0000
0100
0000
0010
0000
0001
0000
,
0010
0000
0100
0000
0010
0000
0001
0000
0020
0000
0000
0000
0030
0000
0100
0010
,
0100
0000
0001
0000
1000
0000
0020
0000
0000
0030
1000
0000
0010
0000
2000
0000
,
0000
0000
3000
0000
0002
0000
0000
0003
2000
0000
0000
0000
3001
0010
0001
0010
,
0001
0000
1000
0001
0000
0000
0100
0000
0010
0000
0001
0000
0010
0000
0100
0000
,
1000
0001
1000
0001
1000
0001
1000
0001
0100
0001
0100
0001
0100
0001
0010
0001
,
0010
0001
0010
0001
0000
0000
1000
0000
0100
0000
0010
0000
0001
0000
1000
0000
,
0010
0000
0000
0100
0000
0000
0001
0000
1000
0010
0000
0010
0100
0000
0001
0000
,
1000
0000
0010
0100
0010
0000
1000
0001
0000
0001
0020
0000
0000
0000
0030
0000
,
0001
0100
0001
0000
0010
0000
0001
1000
0000
1000
0200
0000
0000
0000
0000
0000
,
0320
0000
0000
0030
0001
0000
0010
0000
0100
0000
1000
0000
0000
0000
1010
0000
,
0000
0110
0110
0000
0001
0010
0100
1000
,
0100
0000
2000
0002
0000
0000
0000
0000
0000
0000
0000
0000
0003
0000
0010
0000
,
0020
0000
0000
0000
0000
0000
0000
0000
0000
3030
0000
0000
0010
0000
0100
0000
,
0100
0000
0002
0200
0000
0000
0000
0000
0000
0000
0000
0000
0000
0300
1000
0000
,
1000
0000
0000
0100
0003
0000
0010
0000
0001
0000
0010
0000
0100
0000
1000
0000
,
0001
0000
0100
0020
0000
0000
1000
0000
0000
0000
0000
0000
0100
0000
0000
0000
,
1000
0000
0000
1000
0000
0000
0200
0000
0000
0000
0330
0000
0000
0000
1000
0000
,
0100
0000
0000
0010
0000
0000
0001
0000
0010
0000
0000
0100
0000
0000
1000
0000
,
1100
0110
0011
0110
,
2200
0000
0000
0000
0000
0000
0000
3300
0000
0000
2002
3003
0000
0000
1000
0000
,
0010
0000
0010
1000
0000
1000
0010
0100
,
0002
0100
0203
0001
,
0320
1000
2030
0001
,
3001
0100
0010
0000
0010
1000
0000
1000
,
0001
0000
1000
0010
0000
0010
0100
0001
,
2000
0010
3020
0100
,
0230
0001
0302
1000
,
2003
0010
0001
0000
0010
0001
0000
0010
,
0001
0000
0010
0001
0000
3010
0002
1000
,
0023
0001
0001
0001
,
0001
0000
0001
0000
0031
0000
2000
0001
,
3002
0100
1000
0000
0100
1000
0000
0100
,
1000
0000
0100
1000
0000
0103
0001
1000
,
0100
0000
0000
1100
0000
0000
0100
0000
0010
0000
0000
0011
0000
0000
0001
0000
,
1000
0000
0000
1010
0000
0000
1000
0000
0001
0000
0000
1001
0000
0000
0202
0000
,
0303
0000
0000
0110
0000
0000
0220
0000
0000
0000
0000
0000
0000
0000
0000
0000
,
0000
0000
0000
0330
;

//---------------dance-single - Steps by Jubo----------------
#NOTES:
     dance-single:
     Steps by Jubo:
     Challenge:
     12:
     1.000,1.000,1.000,1.000,1.000,1978.000,378.000,397.000,0.000,0.000:
0000
0000
0000
0000
,
1001
0000
0000
0000
0011
0000
0000
0000
2020
3030
0000
0000
0000
0000
0000
0000
1010
0000
0000
0000
0022
0033
0000
0000
0000
0000
0000
0000
1100
0000
0000
0000
,
0202
0303
0000
0000
0000
0000
0000
0000
0101
0000
0000
0000
2200
3300
0000
0000
0000
0000
0000
0000
0011
0000
0000
0000
1010
0000
0000
0000
0011
0000
0000
0000
,
0220
0000
0000
0000
0000
0000
0000
0330
0000
0000
0110
0000
1100
0000
1001
0000
,
0202
0303
0000
0000
0000
0000
0000
0000
1010
0000
0000
0000
0220
0000
0000
0000
0000
0000
0330
0000
0000
0000
0000
0000
0000
0000
0000
0000
0000
0000
0000
0000
,
1001
0000
0000
0000
1100
0000
0000
0000
0202
0303
0000
0000
0000
0000
0000
0000
0101
0000
0000
0000
2200
3300
0000
0000
0000
0000
0000
0000
0011
0000
0000
0000
,
2020
3030
0000
0000
0000
0000
0000
0000
1010
0000
0000
0000
0022
0033
0000
0000
0000
0000
0000
0000
1100
0000
0000
0000
0101
0000
0000
0000
1100
0000
0000
0000
,
0220
0000
0000
0000
0000
0000
0000
0330
0000
0000
0110
0000
0011
0000
1010
0000
,
0220
0000
0000
0330
,
1001
0000
0000
0000
0101
0000
0000
0000
0220
0330
0110
0000
0000
0000
0000
0000
0110
0000
0110
0000
0202
0303
0000
0000
1001
0000
0000
0000
1010
0000
0000
0000
,
0220
0330
0000
0000
0000
0000
0000
0000
0110
0000
0000
0000
2020
3030
0000
0000
0000
0000
0000
0000
0101
0000
0000
0000
1100
0000
0000
0000
0101
0000
0000
0000
,
0220
0000
0000
0000
0330
0110
1100
0011
,
0220
0330
0000
0000
0000
0000
0011
0000
0011
0000
0000
0000
2200
3300
0000
0000
0000
0000
0000
0000
0011
0000
0000
0000
2200
3300
0000
0000
0000
0000
0000
0000
,
1001
0000
0000
0000
0101
0000
0000
0000
2020
3030
1010
0000
0000
0000
0000
0000
1010
0000
1010
0000
0202
0303
0000
0000
0000
0000
0000
0000
0011
0000
0000
0000
,
2010
3200
0302
0203
2300
3200
0302
0103
,
0110
0001
1000
0010
0100
1000
0001
1000
0001
0100
0010
0001
0100
0010
1000
0100
,
0011
1000
0010
1000
0100
0010
0001
0010
0100
1000
0100
1000
0010
0100
0001
0010
,
1100
0001
0100
0001
0010
0100
1000
0100
0011
1000
0010
0001
1000
0100
0010
0001
,
1100
0000
0000
0000
0000
0000
0110
0000
0000
0000
0000
0000
0110
0000
0000
0000
0011
0000
0000
0000
1000
0001
1000
0001
1000
0001
1000
0001
1000
0001
1000
0001
,
0120
0000
1000
0000
0100
0000
0100
1000
0100
1000
0100
0030
0011
0000
0100
0010
,
0200
0001
0010
0001
0010
0000
0010
0001
0010
0001
0010
0301
1100
0000
0110
0000
,
0012
1000
0010
1000
0010
0000
1000
0010
1000
0010
1000
0013
0110
0000
0001
0100
,
0010
1000
0010
0100
0001
1000
0010
0100
0010
1000
0100
1000
0010
0100
1000
0010
,
2000
0010
0100
0010
0100
0000
0001
0100
0001
0100
0001
3100
1010
0000
0010
1000
,
0020
1000
0100
1030
0011
0000
0100
0010
0200
0001
0010
0301
1100
0000
0001
1000
,
0002
1000
0010
1000
0010
0000
1000
0010
1000
0010
1000
0013
0101
0000
0100
0010
,
1100
0000
0010
0001
1010
0000
0010
0100
0011
0000
0100
1000
0101
0010
0100
0010
,
1001
0000
0001
0010
0100
1000
0010
0100
0001
0010
0001
0100
0010
1000
0100
1000
,
0100
0010
0001
0010
0100
0010
0001
0010
0100
1000
0100
1000
0100
0010
0001
0010
,
1100
0010
1000
0100
0010
0001
0010
0001
0010
0100
0010
0001
0100
0001
0010
0100
,
0001
0100
1000
0100
0010
0100
1000
0100
1000
0100
0010
0001
0010
0100
1000
0100
,
0011
1000
0100
0010
0001
0100
0010
1000
0100
1000
0010
0100
0010
1000
0100
0010
,
0001
0010
0001
0010
0100
1000
0100
1000
0010
0100
1000
0100
0010
1000
0010
0100
,
0011
0100
0010
0100
1000
0100
1000
0010
0100
0010
0100
0010
0001
0010
0001
0200
,
1000
0010
1000
0010
0001
0010
1000
0010
0001
0010
0301
0010
1100
0011
1100
0011
,
1000
0001
1000
0001
1100
0000
0100
0001
0100
0010
0100
0010
0101
0000
0001
0100
,
0001
1000
0001
1000
0011
0000
0010
1000
0010
0100
0010
0100
1010
0000
0100
0001
,
0100
0010
0100
0010
0101
0000
0001
0010
0001
0100
0001
0100
1010
0000
1000
0010
,
1000
0100
1000
0100
0011
0000
0010
0100
0010
1000
0010
1000
0110
0000
1001
0110
,
2002
0000
0000
3003
0110
0000
0022
0000
0000
0033
0110
0000
1100
0000
2020
0000
,
0000
3030
1001
0000
0101
0000
0220
0000
0000
0000
0000
0330
0110
0000
0000
0000
,
2000
0000
3200
0000
0320
0000
0032
0203
0001
1000
0001
1000
0002
0303
0000
0000
,
0002
0000
0023
0000
0230
0000
2300
3020
1000
0001
1000
0001
2000
3030
0001
1000
,
0001
0000
0010
0000
0100
0000
1000
0000
0100
0001
0010
0000
0100
0000
0010
0000
1000
0000
0100
0000
0010
0000
0001
0000
0010
1000
0100
0000
0010
0000
0100
0000
,
0001
0000
0010
0000
0100
0000
1000
0000
0001
1000
0001
1000
0001
1000
0001
1000
0001
1000
0001
1000
0001
1000
0001
1000
0001
1000
0001
1000
0001
1000
0001
1000
,
0110
0010
0100
0010
0100
0000
0010
0000
1000
0100
0010
0001
1100
0000
0100
0000
,
0010
0000
1000
0020
0100
0000
0000
0000
0100
1000
0100
1000
0100
1030
0100
0010
,
0001
1000
0001
1000
0011
0000
0010
0001
0010
0000
0001
0000
0010
0000
0100
0010
,
2000
0000
0100
3001
0200
0000
0010
0301
0020
0000
0001
1030
0002
0000
0010
1003
,
0011
0000
1000
0100
1010
0000
0100
0000
0010
0100
0001
0000
0110
0000
0100
0000
,
1010
0000
0110
0000
0011
0000
0101
0000
0220
0000
0000
0330
0110
0000
0010
1000
,
0011
0000
0010
0000
0100
0010
2000
0000
0001
0000
3001
0000
0110
0000
0220
0000
,
0000
0000
0330
0000
0011
1000
0100
0000
1010
0001
0100
0000
0011
1100
0011
1100
,
0022
0033
0000
0000
0100
0000
0001
0000
1010
0000
0000
0000
0100
0000
0000
0000
0010
0000
0001
0000
1000
0000
0000
0000
0110
0000
0000
0000
0010
0000
0000
0000
,
0001
0000
1001
2002
0000
0000
0000
0000
0000
0000
0000
0000
3003
0000
1000
0000
,
0100
0000
0001
0100
0000
0000
0100
0010
0100
0000
0010
0000
0100
0000
1000
0000
,
2200
3300
0000
0000
0100
0000
0000
0000
0202
0303
0000
0000
0001
0000
0000
0000
2002
3003
0000
0000
1000
0000
0000
0000
2020
3030
0000
0000
0010
0000
0100
0000
,
0010
0000
0100
0000
0010
0000
0100
0000
0001
1000
0020
0000
0100
0000
0030
0000
,
0001
0100
1000
0100
0001
0010
1000
0010
0001
1000
0002
0000
1000
0000
1000
0003
,
2020
3030
0000
0000
1001
0000
1010
0000
1100
0000
0011
0000
0110
0000
2002
3003
,
0000
0000
0000
0000
0022
0033
0000
0000
0022
0033
0000
0000
0100
0000
0000
0000
0010
0000
0000
0000
1000
0000
0000
0000
0100
0000
0000
0000
0010
0000
0000
0000
,
0001
0000
0100
2000
0000
0000
0010
0000
0010
0010
0010
0001
0000
0000
0001
0000
,
0100
0000
0100
0000
0100
0000
0010
0000
0000
0000
0000
0000
0100
0000
0000
0000
3001
0000
0001
0000
0001
0000
1000
0000
0020
0000
0000
0030
0000
0000
0000
0000
,
0110
0000
0100
0020
0000
0000
0000
0000
1000
1000
1000
0100
0000
0000
0100
0000
,
0001
0000
1000
0000
0001
0000
1000
0000
0001
0000
1000
0000
0001
0000
1000
0000
0001
1000
0001
1000
0001
1000
0001
1000
0001
1000
0001
1000
0031
1000
0001
0000
,
0210
0000
0000
0000
0001
0000
0000
0000
1000
0000
0000
0000
0001
0000
1000
0000
0001
0000
1000
0000
0300
0000
1000
0000
0202
0303
0000
0000
1010
0000
0000
0000
,
0120
0000
0000
0000
1000
0000
0000
0000
0001
0000
0000
0000
1000
0000
0001
0000
1000
0000
0001
0000
0030
0000
0001
0000
2020
3030
0000
0000
0110
0000
0000
0000
,
2001
0010
0001
0010
0001
0000
0010
0001
0010
3001
0010
0001
1010
0000
1000
0000
,
2100
0010
0100
0010
0100
0000
0010
0100
0010
3100
0010
0000
0001
0100
0001
0100
,
0022
0033
0000
0220
0330
0000
1000
0010
2200
3300
0000
2002
3003
0000
0001
1000
,
0202
0303
0000
0022
0033
0000
0010
0001
2020
3030
0000
0220
0330
0000
0100
0010
,
2002
0000
3003
0000
0000
0000
0000
0000
1002
0000
0000
0000
0000
0003
0010
0000
0021
0000
0000
0000
0000
0030
0100
0000
0210
0000
0000
0000
0000
0300
1000
0000
,
2100
0000
0000
0000
0000
3000
0100
0000
1200
0000
0000
0000
0000
0300
0010
0000
0120
0000
0000
0000
0000
0030
0001
0000
0012
0000
0100
0000
1000
0003
0100
0000
,
1000
0100
0010
0001
0010
0001
0010
0001
1000
0001
1000
0002
0000
0003
0100
0010
,
0100
0010
0100
0010
0001
0010
0100
1000
0100
1000
0001
1000
0001
1000
0010
1000
,
0110
0000
1000
0100
0010
0001
0100
1000
0001
0010
1000
0100
0010
0001
0100
0010
,
1000
0100
0001
0010
0100
0010
0001
0010
0001
0010
0100
1000
0100
0010
0001
0010
,
1000
0010
1100
0000
0001
0100
0011
0000
1000
0001
0110
0000
0010
0100
1001
0000
,
1000
0100
0010
0001
0010
0001
0010
0100
1000
0100
0010
0001
0100
0010
1000
0100
,
0022
0033
1000
0000
0200
0000
0302
0000
0023
0030
0000
0000
0001
0000
1000
0000
0010
0000
1000
0000
0200
0000
0302
0000
0023
0030
0000
0000
0022
0033
0000
0000
,
2200
3300
0000
0000
0020
0000
2030
0000
3200
0300
0000
0000
0100
0000
0001
0000
0100
0000
0001
0000
0020
0000
2030
0000
3200
0300
0000
0000
1000
0000
0000
0000
,
0001
0000
0000
0000
0020
0000
2030
0000
3002
0003
0000
0000
0010
0000
0100
0000
0001
0000
0100
0000
0020
0000
2030
0000
3002
0003
0000
0000
2020
3030
0000
0000
,
0202
0303
0000
0000
1000
0000
0001
0000
1000
0000
0001
0000
1000
0000
0001
0000
0100
0010
0100
0010
0100
0010
0100
0010
0100
0010
0100
0010
0100
0010
0100
0010
,
1001
0000
1000
0000
0011
0000
1000
0020
1000
0001
0000
0031
1100
0000
1000
0001
,
1000
0010
0100
0000
0110
0000
0001
0200
0010
1000
0000
1300
0011
0000
1000
0000
,
0010
1000
0100
0000
0011
0000
1000
0001
0100
0010
1000
0000
0110
0000
0001
0000
,
1000
0000
0001
0000
0010
0000
0000
0000
2100
0000
0000
0000
0000
0000
3000
0000
0022
0033
0000
0000
0000
0000
0220
0330
0000
0000
0000
0000
1100
0000
0011
0000
,
2200
0000
3300
0000
1001
0000
0220
0330
0010
0000
0010
0000
1001
0000
0202
0303
,
0001
0000
0001
0000
1001
0000
0210
0000
0010
0000
0010
0300
0110
0000
1000
0001
,
0100
0000
0000
0000
0010
0000
0000
0000
1100
0000
0000
0000
1000
0000
0020
0000
0200
0300
0000
0000
0000
0000
0200
0300
0000
0000
0030
0000
1000
0000
0000
0000
,
0100
0000
0000
0000
0010
0000
0000
0000
0001
0000
0000
0000
0001
0000
0200
0000
0020
0030
0000
0000
0000
0000
0020
0030
0000
0000
0300
0000
0001
0000
0000
0000
,
1000
0100
0010
0001
0010
0100
1000
0100
0010
0001
0010
0100
1000
0100
0010
0001
0010
0100
1000
0100
0010
0001
0010
0100
,
1000
0000
0000
0000
0001
1000
0001
1000
0001
1000
0001
1000
0001
1000
0001
1000
0001
1000
0001
1000
0001
1000
0001
1000
0001
1000
0001
1000
0001
1000
0001
0000
,
0110
0000
1000
0001
1010
0000
1000
0000
0100
1000
0010
0000
0101
0000
1000
0000
,
0100
0000
0010
1000
0101
0000
0001
0010
0100
1000
0100
0010
0001
0100
0010
1000
,
0100
0000
0100
1000
0011
0000
0001
0000
0010
1000
0100
0000
1010
0000
0001
0000
,
0120
0000
1000
0030
2010
0000
0001
3000
1002
0000
0100
0003
0201
0000
0010
0310
,
1100
0000
0100
1000
0011
0000
0100
0000
0010
0100
0001
0000
1010
0000
0100
0000
,
1010
0000
0011
0000
0101
0000
1100
0000
0012
1000
0000
1003
0011
0000
0010
1000
,
0100
1000
0100
0110
0010
0001
0010
0220
,
0000
0330
0000
0000
0110
0000
0100
0000
0101
0000
1000
0000
0011
1100
0011
1100
,
0011
0000
1000
0001
0110
0000
0001
0000
0100
0001
0010
0000
1100
0000
0010
0000
,
1000
1000
0100
0010
0001
0001
0010
0100
1000
1000
0100
0010
0001
0001
0010
0100
,
1000
1000
0001
1000
0101
0000
0100
0000
0010
1000
0001
0000
1100
0000
0010
0000
,
2010
0000
0010
3000
0120
0000
0100
0030
0201
0000
0001
0300
1002
0000
1000
1003
,
0011
0100
1000
0001
0010
0000
0010
0001
1000
0100
2000
0000
0001
0000
3000
0000
,
0001
0100
1000
0100
0010
0000
0010
1000
0100
1000
0002
0000
0100
0000
0100
0003
,
2001
0000
0000
3000
0011
0000
0110
0000
0101
0000
1010
0000
1001
0000
1200
0000
,
0000
0300
0011
0000
0011
0000
0010
0000
0100
0000
1000
0000
0100
0000
0010
0000
,
1001
0000
0002
0203
0001
0000
0010
1000
0010
1000
0000
0001
2000
3000
0010
0000
,
1000
0001
1000
0002
0003
0000
0010
0300
0010
0000
0002
2003
3001
0000
0100
0000
,
0011
0000
2000
3020
0100
0000
0100
0030
0110
0000
0002
2003
3000
0000
0000
0000
,
0110
0000
0000
0000
2000
0000
3002
0000
0003
0000
0000
0000
1000
0000
0000
0000
0001
1000
0001
1000
0001
1000
0001
1000
0001
1000
0001
1000
0001
1000
0001
0000
,
0220
0000
0000
0000
0000
0000
0000
0000
0000
0330
0000
0000
1001
0000
0101
0000
,
2020
3000
0000
0000
0200
0300
0000
0000
0200
0330
0000
0000
0220
0330
0000
0000
,
0202
0003
0000
0000
0020
0030
0000
0000
0020
0330
0000
0000
2002
3003
0000
0000
,
2020
3000
0000
0000
0200
0300
0000
0000
0200
0330
0000
0000
0000
0000
0000
0000
,
1000
0001
1000
0000
0001
1000
0001
0000
1000
0001
1000
0000
0011
0000
1010
0000
,
0202
0003
0000
0000
2000
3000
0000
0000
2000
3300
0000
0000
2002
3003
0000
0000
,
0022
0003
0000
0000
0200
0300
0000
0000
0200
0330
1001
0000
0220
0330
0000
0000
,
2002
0003
0000
0000
0020
0030
0000
0000
0020
0000
0000
0000
0000
3030
0000
0000
,
0110
0000
0100
0010
0100
0000
0010
0100
0000
0100
0020
0000
0000
0000
0030
0000
,
1000
0000
0100
0000
0010
0000
0001
0020
0000
0000
0000
0000
0030
0000
1100
0000
,
0011
0000
0000
0110
0000
0000
1100
0000
0011
0000
0000
0110
0000
0000
1100
0000
,
2002
0000
0000
3003
,
1000
0001
1000
0000
0001
0000
1000
0001
1000
0001
1000
0000
0001
1000
0001
0000
,
1000
0010
1000
0010
1000
0000
0100
2000
0001
0100
0001
3000
0100
0010
0101
0000
,
2020
3030
0000
0000
0000
0000
0100
0000
0001
0000
0010
0000
1000
0000
0000
0000
0100
0000
0001
0000
1000
0000
0010
0000
1000
0000
0100
0000
0010
0000
0001
0000
,
0010
0100
1000
0100
0010
0001
0100
0010
0100
0010
0100
0010
0100
0010
0100
0010
,
1001
0100
0010
0100
0010
1000
0001
0010
0100
1000
0200
1000
0010
0001
0310
0100
,
1000
0000
0001
0000
0100
0000
1000
0001
0100
0000
0010
0000
0100
0000
0002
0000
1000
0000
0100
0000
0010
0000
0100
1000
0013
0000
0100
0000
1000
0000
0001
0000
,
0100
0000
0010
0000
1000
0000
0010
1000
0001
0000
0100
0000
0001
0000
1000
0000
0010
0000
0001
0000
0010
0000
0100
0001
1000
0000
0010
0000
1000
0000
0001
0000
,
0100
0000
1000
0000
0100
0000
0010
0100
0001
0000
0010
0000
0001
0000
1000
0000
0001
0000
1000
0000
0001
0000
1000
0000
0001
0000
1000
0000
0001
0000
1000
0000
,
0001
0100
0010
0100
0001
0010
1000
0001
0100
1000
0010
0002
0203
0310
0001
1000
,
0001
0000
0010
0000
1000
0000
0002
0000
2003
0000
3010
0000
0001
0000
0200
0000
1000
0000
0001
0000
0010
0000
0301
1000
0010
0000
0100
0000
0011
0000
0000
0000
,
0011
0000
0000
0220
0330
0000
1100
0000
1100
0000
0000
0220
0330
0000
0011
1000
,
0010
0000
1000
0000
0010
0000
1000
0000
0010
0000
1000
0000
0010
0000
1000
0000
0001
0100
0001
0100
0001
0100
0001
0100
0001
0100
0001
0100
0001
0100
0001
0100
,
0002
0010
1000
0100
2003
0010
0001
0100
3020
0001
1000
0100
2030
0001
0100
0010
,
3002
0100
0010
1000
0023
0100
1000
0001
2030
0001
0010
0100
3002
0010
0100
1000
,
0013
0100
0010
0100
1001
0100
0010
0001
1000
0100
0001
0000
1100
0000
0010
0000
,
1000
0100
0001
0200
0010
0000
1000
0300
0001
1000
0001
1000
0010
1000
0010
1000
,
0100
0000
0001
0000
0100
0000
0001
0000
1010
0000
0000
0000
1100
0000
0000
0000
0202
0303
0000
0000
0220
0330
0000
0000
2020
3030
0000
0000
0022
0033
0000
0000
,
2200
0300
0000
0000
0000
0000
0002
0000
0003
0000
0000
0000
0020
0000
0030
0000
0002
0000
0003
0000
0000
0000
0020
0000
0030
0000
0000
0000
3001
0000
1000
0000
,
0001
0100
1000
0001
0110
0000
1000
0000
0001
1000
0100
0000
1010
0000
0011
0000
,
1010
0000
0101
0000
0110
0000
1010
0000
0021
0000
0001
0031
1100
0000
0100
0010
,
0100
0010
0001
1000
0001
0100
0020
1000
0001
0130
1000
0100
0010
0001
2100
0000
,
0000
0000
3000
0000
0012
0000
0000
0003
2100
0000
0000
3000
0011
1100
0011
1100
,
0011
0000
1000
0001
1100
0000
0100
0000
0010
1000
0001
0000
0110
0000
0100
0000
,
0010
0001
0001
0010
0100
1000
1000
0100
0010
0001
0001
0010
0100
1000
1000
0100
,
0010
0001
0010
0002
1000
0003
1000
0000
0100
0001
0010
1000
0011
0000
1000
0000
,
0220
0000
0330
0000
0000
0000
2200
0000
3300
0000
0000
0000
0022
0000
0033
0000
2000
0000
0000
3000
0200
0000
0000
0300
0002
0000
0000
0003
1100
0000
0011
0000
,
1100
0000
0010
0100
0010
1000
0100
0001
0000
0001
0020
0000
0100
0000
0130
0000
,
0100
0001
0100
0000
0010
0000
0001
1000
0000
1000
0200
0000
0010
0000
0010
0300
,
0120
0000
0000
0030
0002
0000
0023
0000
0230
0000
2300
0000
3000
0000
1010
0000
,
0000
0000
0000
0000
0220
0330
0000
0000
0220
0330
0000
0000
0010
0000
0000
0000
0001
0000
0000
0000
0010
0000
0000
0000
0100
0000
0000
0000
1000
0000
0000
0000
,
1100
0000
0000
0000
2000
0000
0002
0000
0003
0000
0000
0000
0010
0000
0000
0000
0010
0000
0000
0000
0200
0300
0002
0000
0003
0000
0000
0000
0010
0000
0000
0000
,
0020
0000
0030
0000
0200
0300
0002
0000
0003
0000
0000
0000
0100
0000
0000
0000
0100
0000
3000
0000
0002
0000
2003
0000
3010
0000
0000
0000
0100
0000
0000
0000
,
0100
0000
0000
0000
0002
0000
0200
0000
0300
0000
0000
0000
1000
0000
0000
0000
1000
0000
0000
0000
0020
0030
2000
0000
3000
0000
0000
0000
0100
0000
0000
0000
,
0100
0000
0000
0000
2000
3000
0200
0000
0303
0000
0000
0000
0010
0000
0000
0000
0001
0000
0000
0000
0010
0000
0000
0000
0100
0000
0000
0000
1000
0000
0000
0000
,
1001
0000
0000
0000
0200
0000
0320
0000
0000
0000
0000
0000
1000
0000
0000
0000
1000
0000
0000
0000
0002
0003
0200
0000
0300
0000
0000
0000
1000
0000
0000
0000
,
1000
0000
0000
0000
0200
0300
2000
0000
3000
0000
0000
0000
1000
0000
0001
0000
1000
0000
0001
0000
1030
0000
0001
0000
1000
0000
0001
0000
1000
0000
0001
0000
,
0110
1000
0100
0011
0100
0001
1010
0100
0011
0100
0001
1100
0010
1000
0110
0001
,
1100
0000
1000
0001
1000
0001
1000
0001
0100
0010
0100
0010
0100
0010
0100
0010
0001
1000
0001
1000
0001
1000
0001
1000
0010
0100
0010
0100
0010
0100
0010
0100
,
2002
0000
0000
0000
0000
0000
0000
0000
3003
0000
2002
3003
0110
0000
1000
0000
,
0011
0000
0000
0000
0001
0000
0000
0000
0011
0000
0000
0000
1100
0000
0000
0000
1000
0000
0000
0000
2100
0000
0000
3000
0020
0000
0000
0030
0200
0000
0000
0300
,
0002
0010
0100
0010
0100
0000
0100
0000
0203
1000
0001
1000
0010
0000
0010
0000
,
0320
0100
0001
0100
1000
0000
1000
0000
2030
0001
0100
0001
0010
0000
0010
0000
,
3010
1100
0011
0010
0011
1010
1000
1010
,
0011
0010
0110
0011
0001
0012
0203
0320
,
2030
0100
0010
0100
0010
0000
0010
0000
3020
0001
1000
0001
0100
0000
0100
0000
,
0230
0010
1000
0010
0001
0000
0001
0000
0302
1000
0010
1000
0010
0100
0100
0100
,
0203
0000
0020
0030
0002
0003
0000
0000
0002
0003
0020
0030
0000
0000
0020
0030
,
0002
0003
0000
0000
0002
0003
0320
0030
0000
0000
1010
0000
0101
0000
1100
0000
,
0021
0000
0100
1000
0100
0000
1000
0100
1000
0100
1000
0100
1000
0000
0001
0100
,
0001
0100
0001
0100
0001
0000
0100
0001
0130
0001
0100
0001
2100
0000
3002
1000
,
0023
0000
0200
0300
2000
3000
0000
0000
2000
3000
0200
0300
0000
0000
0200
0300
,
2000
3000
0000
0000
2000
3000
0230
0300
0000
0000
2000
0000
3002
0000
0203
0300
,
1001
1000
0100
0010
0100
0010
0100
1000
0110
0001
0010
0100
0010
0100
0010
0001
,
1100
0010
0001
0100
0010
1000
0100
1000
0022
0033
0000
2002
3003
0000
2200
0000
,
0000
3300
0000
0011
0000
0000
0022
0000
0000
0000
0000
0000
0000
0000
0000
0000
,
0000
0000
0000
0033
;

//---------------dance-single - Step by Jubo----------------
#NOTES:
     dance-single:
     Step by Jubo:
     Easy:
     3:
     0.255,0.362,0.145,0.447,0.002,387.000,47.000,145.000,0.000,0.000:
0000
0000
0000
0000
,
2000
0000
3000
0000
,
0002
0000
0003
0000
,
0200
0000
0300
0000
,
0020
0000
0030
0000
,
2000
0000
3000
0000
,
0002
0000
0003
0000
,
2000
0000
3000
0000
,
0002
0000
0000
0003
,
0200
0000
0300
0000
,
0020
0000
0030
0000
,
2000
0000
3000
0000
,
0002
0000
0003
0000
,
0200
0000
0300
0000
,
0020
0000
0030
0000
,
2002
0000
0000
3003
,
0220
0000
0000
0000
0000
0000
0000
0330
,
2000
0000
3002
0000
,
1003
0100
0010
0001
,
2000
0000
0000
3000
,
0002
0000
0000
0000
0000
0003
0100
0000
,
0020
0000
0000
0030
,
0001
0010
0100
1000
,
0002
0000
0000
0000
0000
0000
0000
0000
0000
0000
0000
0000
0000
0003
0000
0000
,
2000
0000
0000
0000
3002
0000
0000
0003
,
2002
0000
0000
0000
0000
0000
0000
0000
0000
0000
0000
0000
0000
3003
0000
0000
,
1000
0100
0010
0001
,
1000
0000
0001
0000
,
0200
0000
0300
0001
,
0002
0000
0000
0003
0100
0000
0010
0000
,
2000
0000
0000
3001
,
0001
0000
1000
0000
,
0020
0000
0030
1000
,
2000
0000
3000
0010
,
0220
0000
0000
0000
0000
0000
0000
0000
0000
0000
0000
0000
0000
0330
0000
0000
,
2000
0000
0000
3000
0200
0000
0000
0300
,
0020
0000
0000
0030
0002
0000
0000
0003
,
0020
0000
0000
0030
0200
0000
0000
0300
,
2000
0000
0000
3000
0002
0000
0000
0003
,
2000
0000
0000
3000
0001
0000
0000
0000
,
0200
0000
0000
0300
0001
0000
0000
0000
,
1000
0000
0000
0000
0001
0000
0000
0000
0020
0000
0000
0000
0000
0030
0000
0000
,
0001
1000
0200
0000
,
1300
0010
0100
0001
,
0010
0100
1000
0002
,
1003
0100
0010
0001
,
1000
0000
0000
0000
0002
0000
0000
0000
0000
0000
0000
0000
0000
0003
0000
0000
,
1001
0110
0010
0010
,
1000
0010
0100
0002
,
1003
0100
0010
0001
,
0100
0100
0002
0003
,
2000
3000
0200
0300
,
0020
1030
0001
0100
,
0010
0010
1000
0001
,
1000
0002
0000
0003
,
1000
0001
1000
0001
,
1000
0100
0010
0001
,
1000
0001
1000
0001
,
0100
0010
0100
0010
,
1001
0001
0100
0010
,
1000
0001
1000
1000
,
1002
0000
0000
0000
,
0000
0000
0000
1003
,
1000
2000
0000
0000
,
0001
0000
0001
0000
,
3002
0000
0000
0000
0000
0003
1000
0000
,
0020
0000
0030
0100
,
0002
0000
0000
0000
0000
0003
0000
0000
,
0200
0000
0000
0000
0000
0000
0000
0000
0000
0300
0000
0000
0020
0000
0000
0000
,
1030
0000
1100
0000
,
0101
0000
0011
0000
,
1020
0030
0200
0300
,
0002
0003
2000
3000
,
2002
0000
0000
0000
,
0000
0000
0000
0003
,
3001
0001
0100
0100
,
0020
0000
0030
1000
,
0200
0000
0000
0000
0000
0300
0000
0000
0010
0000
0000
0000
0010
0000
0000
0000
,
0002
0000
0000
0003
,
1200
0000
0000
0300
0120
0000
0000
0030
,
0012
0000
0000
0003
2001
0000
0000
3000
,
1020
0000
0000
0030
0201
0000
0000
0300
,
0001
1000
0001
1000
,
0001
0010
0200
0300
,
1000
0100
0020
0030
,
0001
0010
0200
0300
,
1000
0100
0020
0030
,
0011
0000
1010
0000
,
1100
0000
0101
0000
,
1001
0000
2000
3000
,
1001
0000
0002
0003
,
2000
0000
0000
0000
,
3020
1030
0001
0100
,
0010
1000
0001
0100
,
0010
1000
0001
1000
,
0001
1000
0010
0100
,
0001
0010
0100
1000
,
0001
1000
0010
0010
,
1000
0001
0200
0300
,
0011
0000
0110
0000
,
1100
1000
0001
0200
,
0301
0001
0010
0100
,
1000
0001
1000
0001
,
1000
0100
0010
0001
,
0001
0010
0100
2000
,
3001
0000
0100
0200
,
0310
0000
1000
2000
,
3002
1003
1000
1000
,
0000
0002
0003
0000
,
2000
0000
0000
0000
,
3020
0000
0000
0030
,
0200
0000
0000
0000
,
0001
0000
0001
0000
,
0302
0000
0000
0013
,
0200
0000
0000
0000
0000
0000
0000
0000
0000
0300
0000
0000
1000
0000
0000
0000
,
0002
0000
0003
0100
,
0020
0000
0000
0000
0000
0000
0000
0000
0000
0030
0000
0000
0000
0000
0000
0000
,
2000
0000
3000
0100
,
0020
0000
0030
0001
,
2000
0000
3000
0001
,
0200
0000
0000
0300
,
0220
0000
0000
0000
,
0000
0000
0000
0330
,
2002
0000
0000
0000
,
0000
0000
0000
3003
,
0220
0000
0000
0000
,
0000
0000
0000
0330
,
2002
0000
0000
0000
,
0000
0000
0000
0000
0000
0000
0000
3003
,
1001
0000
0000
0000
,
0110
0000
0000
0000
,
0110
0000
0000
0000
,
2020
0000
0000
3030
,
1010
0000
0000
0000
,
0202
0000
0000
0303
,
0101
0000
1001
0000
,
2020
0000
0000
0000
0000
0000
0000
0000
0000
0000
0000
0000
0000
3030
0000
0000
,
1000
0100
0010
0001
,
1000
0100
0010
0002
,
1003
0001
0001
1000
,
0100
0100
1000
0010
,
1000
0010
0100
0010
,
0200
0000
0000
0000
,
0301
0001
1000
0001
,
0010
0100
2000
3000
,
1100
0000
0110
0000
,
0011
0001
0100
0010
,
1000
1000
0010
0010
,
0100
0002
0000
0000
,
1003
1000
0001
0010
,
0100
1000
0001
0010
,
0100
1000
0100
0010
,
0100
1000
0100
0010
,
0001
0100
0100
0100
,
0000
0002
1003
0001
,
2000
0000
0000
0000
,
0020
0000
0000
0000
0000
0000
0000
0000
0000
3030
0000
0000
0000
0000
0000
0000
,
0002
0000
0000
0000
,
0100
0103
0010
0100
,
0010
0200
0000
0000
,
0020
0000
0000
0000
0000
0330
0000
0000
,
1010
0000
0110
0000
,
0101
0000
0002
0000
,
2003
0000
0000
0000
,
0000
0000
0000
0000
,
3002
0000
0203
0000
,
0320
0000
2030
0000
,
0000
0000
3000
0000
,
0000
0000
0000
0000
,
0002
0000
0023
0000
,
0230
0000
2300
0000
,
3200
0000
0000
0000
,
0000
0000
0000
0000
0000
0300
0002
0000
,
0203
0000
0000
0000
,
0000
0000
0300
0020
,
2030
0000
0000
0000
,
0000
0000
0000
0000
0000
3000
0020
0000
,
2030
0000
0000
0000
,
0000
0000
0000
0000
0000
0000
0000
3000
,
0000
0000
0000
0001
0000
0000
0002
0000
0000
0000
0000
0000
0000
0000
0000
0000
,
0000
0000
0000
0003
;
